#TITLE:Baka Go Home V2;
#SUBTITLE:Baka To Test To Shoukanjuu Opening;
#ARTIST:Hiro Shimono;
#TITLETRANSLIT:;
#SUBTITLETRANSLIT:;
#ARTISTTRANSLIT:;
#CREDIT:[N]hok[Q];
#BANNER:bn.png;
#BACKGROUND:bg.png;
#LYRICSPATH:;
#CDTITLE:cd.png;
#MUSIC:Baka Go Home V2.mp3;
#OFFSET:-0.186;
#SAMPLESTART:34.543;
#SAMPLELENGTH:12.000;
#SELECTABLE:YES;
#BPMS:0.000=668.519,1.000=318.373,2.000=609.116,3.000=308.896,4.000=714.556,5.000=313.544,6.000=647.577,7.000=323.353,8.000=714.363,9.000=668.519,10.000=609.256,11.000=191.545,12.000=159.100,19.000=328.532,20.000=323.353,21.000=113.626,22.000=252.312,23.000=109.420,24.000=313.544,25.000=166.803,26.000=127.666,27.000=143.633,28.000=200.835,29.000=159.100,35.000=159.091,36.000=272.250,37.000=328.492,38.000=109.420,39.000=291.442,40.000=103.400,41.000=323.353,42.000=183.051,43.000=265.237,44.000=148.794,45.000=159.100,51.000=159.091,52.000=159.100,59.000=159.091,60.000=159.100,61.000=133.427,62.000=159.100,66.000=159.091,67.000=159.100,74.000=159.091,75.000=159.100,76.000=102.376,77.000=159.100,82.000=159.091,83.000=159.100,90.000=159.091,91.000=159.100,93.000=142.634,94.000=159.100,98.000=159.091,99.000=159.100,105.000=328.492,106.000=265.237,107.000=308.860,108.000=258.626,109.000=165.468,110.000=189.773,111.000=287.390,112.000=172.367,113.000=258.626,114.000=405.828,115.000=159.100,117.000=166.803,118.000=202.805,119.000=195.147,120.000=291.442,121.000=159.100,122.000=159.091,123.000=159.100,126.000=162.861,127.000=145.641,128.000=159.100,131.000=159.091,132.000=159.100,135.000=159.091,136.000=159.100,139.000=159.091,140.000=159.100,143.000=159.091,144.000=159.100,147.000=159.091,148.000=159.100,151.000=159.091,152.000=159.100,155.000=159.091,156.000=159.100,157.000=122.370,158.000=159.100,159.000=159.091,160.000=159.100,163.000=159.091,164.000=159.100,167.000=159.091,168.000=159.100,171.000=159.091,172.000=159.100,175.000=159.091,176.000=159.100,179.000=159.091,180.000=159.100,183.000=159.091,184.000=159.100,187.000=159.091,188.000=159.100,189.000=124.582,190.000=159.100,191.000=159.091,192.000=159.100,195.000=159.091,196.000=159.100,199.000=159.091,200.000=159.100,203.000=159.091,204.000=159.100,207.000=159.091,208.000=159.100,211.000=159.091,212.000=159.100,213.000=295.609,214.000=159.100,215.000=159.091,216.000=159.100,219.000=159.091,220.000=159.100,222.000=304.313,223.000=159.091,224.000=159.100,227.000=159.091,228.000=159.100,230.000=148.794,231.000=159.091,232.000=159.100,235.000=159.091,236.000=159.100,239.000=279.586,258.000=279.615,259.000=279.586;
#STOPS:;
#BGCHANGES:0.000=Baka Go Home.avi=1.000=1=1=0,
240.000=bg.png=1.000=0=0=1,
99999=-nosongbg-=1.000=0=0=0 // don't automatically add -songbackground-
;
// cache tags:
#FIRSTBEAT:0.000;
#LASTBEAT:240.000;
#SONGFILENAME:Songs/sdo pack 6/Baka Go Home V2/Baka Go Home V2.sm;
#HASMUSIC:1;
#HASBANNER:1;
#MUSICLENGTH:91.068;
// end cache tags

//---------------dance-single - ----------------
#NOTES:
     dance-single:
     :
     Hard:
     19:
     1.000,1.000,1.000,0.681,0.752,556.000,317.000,62.000,0.000,124.000:
1100
0011
1100
0011
,
0011
1100
0011
1100
,
0110
0000
0000
0000
1001
0000
0000
0000
0110
0000
0000
0000
2001
0010
0100
0010
,
3102
0010
0100
1000
0213
0001
0010
1000
0312
0100
1000
0100
2013
0100
0010
0001
,
3210
0000
0321
0000
2130
0010
0001
0010
3100
0010
0001
0010
0100
0000
0000
0000
,
0111
1110
0111
1101
,
0111
0000
0000
0000
0111
0000
0000
0000
2112
0010
0100
0010
3103
0010
1000
0100
,
0012
0100
0010
0100
2013
0100
0010
0001
3120
0001
0100
1000
0132
1000
0100
0010
,
2103
0010
0001
0010
3201
0000
0312
0000
2103
0010
0001
0010
0100
0010
0001
0010
,
3100
1001
0110
0110
,
1001
0111
0111
1221
,
0001
1000
0001
1000
0331
1000
0100
0010
1001
0000
0110
0000
1001
0000
0001
0001
,
1010
0000
0110
0000
0011
0000
1000
1000
0011
0000
1100
0000
0011
0000
1000
1000
,
0110
0000
0011
0000
1100
0000
1000
1000
0110
0000
0011
0000
1010
0000
1001
1000
,
0110
0000
0011
0000
1001
0000
0110
0001
1001
0000
0110
0000
1001
0000
0110
0000
,
2200
0000
0000
0000
3322
0000
0000
0000
1133
0000
0000
0001
0011
0000
0110
0000
,
1100
0000
0011
0000
0110
0000
1000
1000
0110
0000
0011
0000
1100
0000
1100
0001
,
0011
0010
1100
0000
0110
0000
0011
1000
1100
0000
0110
0000
0011
0010
1100
0010
,
0110
0011
1100
0110
1101
0111
1110
0111
,
1000
0000
0100
0000
1000
0000
0010
0000
0100
0000
0010
0000
0001
0000
0000
0010
0000
0000
0100
0000
0000
1000
0000
0000
0011
0000
0000
0000
0000
0000
1000
0000
0000
0000
0000
0000
0110
0000
0000
0000
0000
0000
0001
0000
0000
0000
0000
0000
,
1100
0010
1001
0100
1010
0001
1010
0100
,
1001
0010
1001
0100
1010
0001
0110
1000
,
0110
0001
0011
0100
1010
0001
0101
0102
,
1010
2103
0110
3001
1010
0100
1010
0001
,
0110
1000
0110
1000
0011
0100
1001
0010
,
0101
0001
0110
1000
0110
0100
1100
0010
,
0101
0010
0110
0000
1110
0000
0111
0000
,
1110
0000
0000
0000
2111
0000
0000
0000
3100
0010
0001
0010
1100
0000
0011
0000
,
1110
0000
1110
0000
0111
0000
0000
0000
1110
0000
0000
0000
0011
0100
1000
0100
,
0010
0001
0010
0100
0011
0000
1100
0000
0011
0000
0110
0000
1100
0000
1001
0000
,
1010
0110
1001
0110
1001
0110
1001
0011
,
1100
1000
1001
0001
0110
0000
1100
0010
0011
0000
1100
0000
0110
0000
0001
0001
,
0110
0000
1100
0000
0101
0000
1000
1000
0110
0000
0011
0000
1100
0000
0101
0000
,
1010
0000
0110
0000
1001
0000
0011
1000
1100
0000
0110
0000
0011
0000
1100
0010
,
0110
0000
0011
0000
1001
0000
0110
1000
1001
0000
0110
0000
1001
0000
0110
0000
,
1001
0011
1101
0000
1101
1110
0111
0000
,
1110
0111
1101
0000
0111
0110
1001
0101
,
0111
1110
0111
0000
1110
0111
1110
0000
,
0111
1101
1011
0000
1112
0000
1123
0000
,
1231
0000
0000
0000
2311
0010
0010
0100
3110
0001
0010
0100
0011
0100
0010
0100
,
1001
0010
0100
1000
0011
0100
1000
0010
1001
0100
0010
1000
0101
0010
0001
0010
,
0101
1000
0001
0010
1100
0010
0001
1000
0101
0010
0100
1000
0101
0010
0100
1000
,
0110
0001
0010
0100
1001
0100
1000
0010
0101
0010
1000
0100
1010
0001
0010
0001
,
0110
1000
0100
0010
1001
0100
1000
0010
0101
1000
0001
0010
0101
1000
0010
0100
,
1010
0001
0010
0001
1010
0100
1000
0010
0101
1000
0001
0010
1100
0010
0001
0100
,
0011
0100
0001
0010
0101
1000
0100
1000
0101
0010
0100
0010
1001
0010
0100
1000
,
0011
0100
1000
0001
1010
0100
1000
0001
1010
0100
1000
0100
1010
0001
0010
0001
,
1100
0000
0011
0000
1100
0100
0110
0010
1012
0000
0110
0000
2013
0000
0110
0000
,
3102
1100
0113
1100
0210
1001
1320
1100
,
0231
1010
0311
1100
2010
0110
3012
1100
,
0213
1001
1310
0110
0011
0110
1100
0110
,
1001
0011
0101
1001
2100
0011
3210
0011
,
0321
1100
1031
1100
0012
1010
1203
0011
,
1302
0110
1103
0000
0110
2100
0101
3120
,
1001
1032
1010
2013
0101
3021
1001
1130
,
1001
0010
0100
0010
0100
1000
0100
1000
0110
0000
0000
0000
1112
0000
0000
0000
,
2113
3112
1213
1312
,
0020
0000
2000
0000
3033
0000
1100
0110
,
0011
0000
0011
0110
1100
0000
0110
1111
,
1111
0110
1111
1111
2222
0000
0000
0000
,
3333
0000
0000
0000
,
0000
0000
0000
0000
,
0000
0000
0000
0000
,
0000
0000
0000
0000
,
0000
0000
0000
0000
,
0000
0000
0000
0000
,
0000
0000
0000
0000
;
